Enable / Włącz Javascript
 Widok 
 Kategorie 
 Nitro Torrent w sieci 
 Top 10 użytkowników 
 The Affair S04E07 [720p.AMZN.WEB-DL.H.264.AC3] [Lektor PL]

The Affair S04E07 [720p.AMZN.WEB-DL.H.264.AC3] [Lektor PL]
Kategoria: » » » »
Dodane: 31/07/2018
Rozmiar: 744.86 MB
Uploader: Lukarusi (1)
seed(ów): 10
leecher(ów): 1
Pobrane: 60
Komentarzy: 0
Pobierz Torrent Pobierz Torrent
Pobierz [Magnet] Pobierz [Magnet]

Obserwuj
Raportuj
Info

produkcja: USA
gatunek: Dramat
reżyseria: Mark Mylod, Jeffrey Reiner, Carl Franklin
scenariusz: Hagai Levi, Sarah Treem
zdjęcia: Steven Fierberg
muzyka: Marcelo Zarvos
czas trwania: ok. 56 min.

Opis

Każdy z nas posiada jakiś sekret - taki, do którego nie chce się przyznać nawet przed samym sobą. Również bohaterowie nowego serialu obyczajowego The Affair skrywają przed najbliższymi tajemnicę... Ich przypadkowe spotkanie przeradza się w gorące uczucie. Początkowo próbują z nim walczyć, ale pożądanie jest silniejsze. Czy romans pomiędzy piękną kelnerką Alison i Noah Sollowayem wyjdzie na jaw? Czy zakazane uczucie doprowadzi do rozpadu związków kochanków i wpłynie na życie ich rodzin?

Obsada

Dominic West - Noah Solloway
Ruth Wilson - Alison Lockhart
Maura Tierney - Helen Solloway
Julia Goldani Telles - Whitney Solloway
Jadon Sand - Trevor Solloway
Jake Richard Siciliano - Martin Solloway
Leya Catlett - Stacey Solloway

Dane Techniczne

Format : Matroska
Format version : Version 4 / Version 2
File size : 745 MiB
Duration : 55 min 50 s
Overall bit rate : 1 865 kb/s
Encoded date : UTC 2018-07-31 14:21:10

Video
ID : 1
Format : AVC
Format/Info : Advanced Video Codec
Format profile : High@L3.1
Format settings : CABAC / 5 Ref Frames
Format settings, CABAC : Yes
Format settings, ReFrames : 5 frames
Codec ID : V_MPEG4/ISO/AVC
Duration : 55 min 50 s
Bit rate : 1 479 kb/s
Width : 1 280 pixels
Height : 720 pixels
Display aspect ratio : 16:9
Frame rate mode : Constant
Frame rate : 23.976 (24000/1001) FPS
Color space : YUV
Chroma subsampling : 4:2:0
Bit depth : 8 bits
Scan type : Progressive
Bits/(Pixel*Frame) : 0.067
Stream size : 591 MiB (79%)
Color range : Limited
Color primaries : BT.709
Transfer characteristics : BT.709
Matrix coefficients : BT.709

Audio
ID : 2
Format : AC-3
Format/Info : Audio Coding 3
Codec ID : A_AC3
Duration : 55 min 50 s
Bit rate mode : Constant
Bit rate : 384 kb/s
Channel(s) : 2 channels
Channel positions : Front: L R
Sampling rate : 48.0 kHz
Frame rate : 31.250 FPS (1536 SPF)
Bit depth : 16 bits
Compression mode : Lossy
Stream size : 153 MiB (21%)
Language : Polish
Service kind : Complete Main
Dostępne napisy
Brak napisów
Szczegóły torrenta
Tracker http://tracker.vanitycore.co:6969/announce
Multitracker [ Pokaż ]
Kategoria: » » » » [Zgłoś błąd]
Dodane 31-07-2018
Podziękowali:
1 użytkownik 
[ Pokaż ]
Podziękuj!
Pokaż / Ukryj pliki:
Nazwa pliku Rozmiar
The Affair S04E07 [720p.AMZN.WEB-DL.H.264.AC3] [Lektor PL].mkv 744.86 MB
1 plik
Brak komentarzy...
SEAL Team S02E07 HDTV x264-SVA[eztv] | Tibor Takács | Sao Tome E Principe 1984 Olympiade Sarajevo gestempelt Block