Enable / Włącz Javascript
 Widok 
 Kategorie 
 Nitro Torrent w sieci 
 Top 10 użytkowników 
 The Affair S04E04 [720p.AMZN.WEB-DL.H.264.AC3] [Lektor PL]

The Affair S04E04 [720p.AMZN.WEB-DL.H.264.AC3] [Lektor PL]
Kategoria: » » » »
Dodane: 09/07/2018
Rozmiar: 801.25 MB
Uploader: Lukarusi (1)
seed(ów): 15
leecher(ów): 1
Pobrane: 86
Komentarzy: 0
Pobierz Torrent Pobierz Torrent
Pobierz [Magnet] Pobierz [Magnet]

Obserwuj
Raportuj
Info

produkcja: USA
gatunek: Dramat
reżyseria: Mark Mylod, Jeffrey Reiner, Carl Franklin
scenariusz: Hagai Levi, Sarah Treem
zdjęcia: Steven Fierberg
muzyka: Marcelo Zarvos
czas trwania: ok. 58 min.

Opis

Każdy z nas posiada jakiś sekret - taki, do którego nie chce się przyznać nawet przed samym sobą. Również bohaterowie nowego serialu obyczajowego The Affair skrywają przed najbliższymi tajemnicę... Ich przypadkowe spotkanie przeradza się w gorące uczucie. Początkowo próbują z nim walczyć, ale pożądanie jest silniejsze. Czy romans pomiędzy piękną kelnerką Alison i Noah Sollowayem wyjdzie na jaw? Czy zakazane uczucie doprowadzi do rozpadu związków kochanków i wpłynie na życie ich rodzin?

Obsada

Dominic West - Noah Solloway
Ruth Wilson - Alison Lockhart
Maura Tierney - Helen Solloway
Julia Goldani Telles - Whitney Solloway
Jadon Sand - Trevor Solloway
Jake Richard Siciliano - Martin Solloway
Leya Catlett - Stacey Solloway

Dane Techniczne

Format : Matroska
Format version : Version 4 / Version 2
File size : 801 MiB
Duration : 58 min 5 s
Overall bit rate : 1 928 kb/s
Encoded date : UTC 2018-07-09 09:42:53

Video
ID : 1
Format : AVC
Format/Info : Advanced Video Codec
Format profile : High@L3.1
Format settings : CABAC / 5 Ref Frames
Format settings, CABAC : Yes
Format settings, ReFrames : 5 frames
Codec ID : V_MPEG4/ISO/AVC
Duration : 58 min 5 s
Bit rate : 1 542 kb/s
Width : 1 280 pixels
Height : 720 pixels
Display aspect ratio : 16:9
Frame rate mode : Constant
Frame rate : 23.976 (24000/1001) FPS
Color space : YUV
Chroma subsampling : 4:2:0
Bit depth : 8 bits
Scan type : Progressive
Bits/(Pixel*Frame) : 0.070
Stream size : 641 MiB (80%)
Color range : Limited
Color primaries : BT.709
Transfer characteristics : BT.709
Matrix coefficients : BT.709

Audio
ID : 2
Format : AC-3
Format/Info : Audio Coding 3
Codec ID : A_AC3
Duration : 58 min 5 s
Bit rate mode : Constant
Bit rate : 384 kb/s
Channel(s) : 2 channels
Channel positions : Front: L R
Sampling rate : 48.0 kHz
Frame rate : 31.250 FPS (1536 SPF)
Bit depth : 16 bits
Compression mode : Lossy
Stream size : 160 MiB (20%)
Language : Polish
Service kind : Complete Main
Dostępne napisy
Brak napisów
Szczegóły torrenta
Tracker http://tracker.vanitycore.co:6969/announce
Multitracker [ Pokaż ]
Kategoria: » » » » [Zgłoś błąd]
Dodane 09-07-2018
Podziękowali:
1 użytkownik 
[ Pokaż ]
Podziękuj!
Pokaż / Ukryj pliki:
Nazwa pliku Rozmiar
The Affair S04E04 [720p.AMZN.WEB-DL.H.264.AC3] [Lektor PL].mkv 801.25 MB
1 plik
Brak komentarzy...
HD The Sex Robots Are Coming (2017) | Herkules / Hercules: The Le... | Pack Séries