Enable / Włącz Javascript
 Widok 
 Kategorie 
 Nitro Torrent w sieci 
 Top 10 użytkowników 
 Sea Rex 3D (OU) Podróż do Prehistorycznego Świata - Journey to a Prehistoric World *2010* [mini-HD 1080p Over-Under AC3 BluRay x264-LEON 345] [Lektor PL]

Sea Rex 3D (OU) Podróż do Prehistorycznego Świata - Journey to a Prehistoric World *2010* [mini-HD 1080p Over-Under AC3 BluRay x264-LEON 345] [Lektor PL]
Kategoria: » » »
Dodane: 03/10/2017
Rozmiar: 3.84 GB
Uploader: sabongunity.com❱ Wędrowiec
seed(ów): 0
leecher(ów): 0
Pobrane: 3
Komentarzy: 0
Pobierz Torrent Pobierz Torrent
Pobierz [Magnet] Pobierz [Magnet]

Obserwuj
Raportuj

Film w wersji 3D Over-Under.
Do odtworzenia filmu WYMAGANY odpowiedni sprzęt (TV 3D)
========================================================

Kopia mini-HD 1080p - tylko 3,84 GB

gatunek: Dokumentalny
premiera: 11 lutego 2011 (Polska), 14 maja 2010 (Świat)

Sea Rex: Podróż do prehistorycznego świata jest filmem dokumentalnym zrealizowanym w technologii 3D. Razem z młodą kobietą imieniem Julie udamy się w podróż pełną przygód w całkowicie nowym wymiarze. Poznamy wspaniały podwodny świat zamieszkały przez olbrzymie stworzenia. Zobaczymy potężne Liopleurodony, Elasmozaury (z długą szyją) i gigantycznych rozmiarów Szonizaury. Prehistoria w filmie ożywa w sposób zarówno unikalny, jak i zabawny. Przygotujcie się na spotkanie twarzą w twarz z T-Rexem mórz.

Kopie 3D SBS (OU) mini-HD, to kopie specjalistyczne o dużej rozdzielczości (1920 x 1080), które mimo niewielkiego ciężaru (w MB) zachowują wysoką jakość.

Szczególnie polecam tym, którzy chcą zaoszczędzić czas i przestrzeń na dysku.

Taką kopię można także bez problemu nagrać na zwykłą płytę DVD lub przenieś na zewnętrzną pamięć.

Ważne jest również to, że tą wersję mogą obejrzeć osoby, których sprzęt ma ograniczenia w postaci obsługi tylko formatu FAT, jak wiadomo taki format obsłuży filmy, które mają maksymalnie 4GB, więc w tym przypadku ta wersja jest też dla nich.

TÄ? KOPIE WYKONA? LEON 345 SPECJALNIE DLA WAS

General
Unique ID : 229433169179665512444752184702244170531 (0xAC9B38986DC2260C8F660C0FA12F2B23)
Complete name : D:FilmyFilmy 3DSzablonWstawkaSEA_REX3D(Leon 345)SEA_REX.3D(Leon 345).mkv
Format : Matroska
Format version : Version 2
File size : 3.84 GiB
Duration : 40mn 58s
Overall bit rate : 13.4 Mbps
Movie name : SEA_REX.Title1.Bluray3DRip
Encoded date : UTC 2012-08-13 00:51:57
Writing application : DVDFab
Writing library : libebml v0.7.8 + libmatroska v0.8.1

Video
ID : 3
Format : AVC
Format/Info : Advanced Video Codec
Format profile : High@L5.1
Format settings, CABAC : Yes
Format settings, ReFrames : 2 frames
Codec ID : V_MPEG4/ISO/AVC
Duration : 40mn 58s
Bit rate : 12.7 Mbps
Width : 1 920 pixels
Height : 1 080 pixels
Display aspect ratio : 16:9 (1,78 :1)
Frame rate mode : Constant
Frame rate : 23.976 fps
Color space : YUV
Chroma subsampling : 4:2:0
Bit depth : 8 bits
Scan type : Progressive
Bits/(Pixel*Frame) : 0.255
Stream size : 3.63 GiB (95%)
Writing library : x264 core
Default : No
Forced : No
Color primaries : BT.709
Transfer characteristics : BT.709
Matrix coefficients : BT.709

Audio
ID : 4
Format : AC-3
Format/Info : Audio Coding 3
Mode extension : CM (complete main)
Format settings, Endianness : Big
Codec ID : A_AC3
Duration : 40mn 58s
Bit rate mode : Constant
Bit rate : 448 Kbps
Channel(s) : 6 channels
Channel positions : Front: L C R, Side: L R, LFE
Sampling rate : 48.0 KHz
Bit depth : 16 bits
Compression mode : Lossy
Stream size : 131 MiB (3%)
Language : Polish
Default : No
Forced : No

Menu
00:00:00.000 : en01)00:00:00:000
00:03:32.921 : en02)00:03:32:921
00:07:53.639 : en03)00:07:53:639
00:11:59.468 : en04)00:11:59:468
00:15:13.537 : en05)00:15:13:537
00:17:37.848 : en06)00:17:37:848
00:21:04.721 : en07)00:21:04:721
00:24:55.118 : en000:24:55:118
00:27:44.079 : en09)00:27:44:079
00:31:00.859 : en10)00:31:00:859
00:36:02.827 : en11)00:36:02:827
00:38:12.581 : en12)00:38:12:581
00:40:59.665 : en13)00:40:59:665

Source [thx]:

IMAX - Sea Rex: Journey to a Prehistoric World (2010) Blu-ray 3D CEE 1080p AVC DTS-HD 5.1-The3DTeam

zapraszam wszystkich chętnych i pamiętajcie udostępniać innym bo mało tego było a tak piloty już się nie kurzą. Dostajecie za darmo więc dajcie innym !!!

Dostępne napisy
Brak napisów
Szczegóły torrenta
Tracker http://fr33dom.h33t.com:3310/announce
Multitracker [ Pokaż ]
Kategoria: » » » [Zgłoś błąd]
Dodane 03-10-2017
Podziękowali:
0 użytkowników 
Podziękuj!
Pokaż / Ukryj pliki:
Nazwa pliku Rozmiar
SEA_REX.3D(Leon 345).mkv 3.84 GB
28927_front.jpg 81.61 KB
Poradnik Leona do filmów 3D.txt 19.63 KB
Open.txt 0.14 KB
4 plików
Brak komentarzy...
Comédie 1245 | CAM Slender Man | Лучшие за неделю