Enable / Włącz Javascript
 Widok 
 Kategorie 
 Nitro Torrent w sieci 
 Top 10 użytkowników 
 Rekiny 3D - Bliskie Spotkanie z Ginącymi Władcami Oceanów (OU) - Sharks 3D [mini-HD 1080p Over-Under AC3 x264-LEON 345] [Lektor PL]

Rekiny 3D - Bliskie Spotkanie z Ginącymi Władcami Oceanów (OU) - Sharks 3D [mini-HD 1080p Over-Under AC3 x264-LEON 345] [Lektor PL]
Kategoria: » » »
Dodane: 03/10/2017
Rozmiar: 1.36 GB
Uploader: tomysparow559 (10)
seed(ów): 0
leecher(ów): 0
Pobrane: 10
Komentarzy: 0
Pobierz Torrent Pobierz Torrent
Pobierz [Magnet] Pobierz [Magnet]

Obserwuj
Raportuj
Film w wersji 3D Over-Under.
Do odtworzenia filmu WYMAGANY odpowiedni sprzęt (TV 3D)

Ten trójwymiarowy dokument nakręcony w technice IMAX, ma na celu przywrócenie dobrego wizerunku rekinów oraz powstrzymanie stopniowego zmniejszania się ich populacji na Ziemi.

Wyrusz z prawdziwym Aris Turtle, przyjaznym gospodarzem filmu Rekiny 3D, w zapierającą dech w piersiach podróż w morskie głębiny, która pozwoli Ci poznać drapieżnika doskonałego – rekina. Przeżyj bliskie spotkanie w trójwymiarze z Lwami i Tygrysami Oceanu. Stań oko w oko z wieloma gatunkami rekinów; z żarłaczem białym, z rekinem młotem i rekinem wielorybim. Zobacz, jakie są one w rzeczywistości. Przekonaj się, że to nie złośliwe, pożerające ludzi bestie, lecz dzikie, fascynujące i zagrożone wyginięciem zwierzęta, które pojawiły się na Ziemi miliony lat przed tym, jak zaczęły ją przemierzać dinozaury.

Kopie 3D SBS(OU) mini-HD, to kopie specjalistyczne o dużej rozdzielczości (1920 x 1080 ), które mimo niewielkiego ciężaru (w MB) zachowują wysoką jakość.

Szczególnie polecam tym, którzy chcą zaoszczędzić czas i przestrzeń na dysku.

Taką kopię można także bez problemu nagrać na zwykłą płytę DVD lub przenieś na zewnętrzną pamięć.

Ważne jest również to, że tą wersję mogą obejrzeć osoby, których sprzęt ma ograniczenia w postaci obsługi tylko formatu FAT, jak wiadomo taki format obsłuży filmy, które mają maksymalnie 4GB, więc w tym przypadku ta wersja jest też dla nich.

TĄ KOPIE WYKONAŁ LEON 345 SPECJALNIE DLA WAS

General
Complete name : E:FilmyFilmy 3DSBS 3DSharks 3D (Leon 345)SHARKS-3D (Leon 345).mkv
Format : Matroska
File size : 1.36 GiB
Duration : 41mn 33s
Overall bit rate : 4 695 Kbps
Movie name : SHARKS3D.Title1.Bluray3DRip
Encoded date : UTC 2012-03-31 16:02:28
Writing application : DVDFab
Writing library : libebml v0.7.8 + libmatroska v0.8.1

Video
ID : 1
Format : AVC
Format/Info : Advanced Video Codec
Format profile : High@L5.1
Format settings, CABAC : Yes
Format settings, ReFrames : 2 frames
Muxing mode : Container profile=Unknown@5.1
Codec ID : V_MPEG4/ISO/AVC
Duration : 41mn 31s
Bit rate : 4 218 Kbps
Width : 1 920 pixels
Height : 1 080 pixels
Display aspect ratio : 16:9
Frame rate : 23.976 fps
Resolution : 8 bits
Colorimetry : 4:2:0
Scan type : Progressive
Bits/(Pixel*Frame) : 0.085
Stream size : 1.22 GiB (90%)
Writing library : x264 core
Color primaries : BT.709-5, BT.1361, IEC 61966-2-4, SMPTE RP177
Transfer characteristics : BT.709-5, BT.1361
Matrix coefficients : BT.709-5, BT.1361, IEC 61966-2-4 709, SMPTE RP177

Audio
ID : 2
Format : AC-3
Format/Info : Audio Coding 3
Codec ID : A_AC3
Duration : 41mn 33s
Bit rate mode : Constant
Bit rate : 384 Kbps
Channel(s) : 6 channels
Channel positions : Front: L C R, Side: L R, LFE
Sampling rate : 48.0 KHz
Stream size : 114 MiB (8%)
Language : Polish

Menu
00:00:00.000 : en:(01)00:00:00:000
00:05:29.871 : en:(02)00:05:29:871
00:11:20.096 : en:(03)00:11:20:096
00:17:36.305 : en:(04)00:17:36:305
00:22:36.480 : en:(05)00:22:36:480
00:27:26.770 : en:(06)00:27:26:770
00:34:31.527 : en:(07)00:34:31:527
00:38:43.154 : en:(08)00:38:43:154
00:41:35.659 : en:(09)00:41:35:659

torrent pobrano z http://*censored*
Dostępne napisy
Brak napisów
Szczegóły torrenta
Tracker http://i.bandito.org/announce
Multitracker [ Pokaż ]
Kategoria: » » » [Zgłoś błąd]
Dodane 03-10-2017
Podziękowali:
0 użytkowników 
Podziękuj!
Pokaż / Ukryj pliki:
Nazwa pliku Rozmiar
SHARKS-3D (Leon 345).mkv 1.36 GB
mini LEON.jpg 156.67 KB
Poradnik Leona do filmów 3D.txt 14.31 KB
info.url 0.11 KB
4 plików
Brak komentarzy...
Hotel Artemis 2018 Movie Free Download HD Cam | L'Arme fatale | Ayushman Bhav