Enable / Włącz Javascript
 Widok 
 Kategorie 
 Nitro Torrent w sieci 
 Top 10 użytkowników 
 Planet Dinosaur: Ultimate Killers 3D OU *2012* [mini-HD 1080p Over-Under Dual audio AC3 BluRay x264-LEON 345] [Lektor PL]

Planet Dinosaur: Ultimate Killers 3D OU *2012* [mini-HD 1080p Over-Under Dual audio AC3 BluRay x264-LEON 345] [Lektor PL]
Kategoria: » » »
Dodane: 03/10/2017
Rozmiar: 3.97 GB
Uploader: sabongunity.com❱ Wędrowiec
seed(ów): 0
leecher(ów): 0
Pobrane: 9
Komentarzy: 0
Pobierz Torrent Pobierz Torrent
Pobierz [Magnet] Pobierz [Magnet]

Obserwuj
Raportuj
Film w wersji 3D Over-Under.
Do odtworzenia filmu WYMAGANY odpowiedni sprzęt (TV 3D)
========================================================

Kopia mini-HD 1080p = tylko 3,97 GB

Rok : 2012
Produkcja : Wielka Brytania
Gatunek : Dokumentalny, Animacja
Narrator : John Hurt

Wspaniała seria BBC, przywołała do życia najbardziej niesamowite stworzenia, które kiedyś istniały i kończy się na odcinku specjalnym, przedstawiającym losy największych zabójcow w historii Ziemmi. Od Spinosaurusa, największego zabójcy w okresie dinozaurów, do ogromnego potwora morskiego Predatora X. Dinozaury były bardziej potworne, przerażające i dziwaczne niż nasze wyobrażenia. Świetna grafika i wspaniałe zdjęcia w realistycznych scenach walki, dają nam zupełnie nowe spojrzenie na dinozaury.

Kopie 3D SBS (OU) mini-HD, to kopie specjalistyczne o dużej rozdzielczości (1920 x 1080), które mimo niewielkiego ciężaru (w MB) zachowują wysoką jakość.

Szczególnie polecam tym, którzy chcą zaoszczędzić czas i przestrzeń na dysku.

Taką kopię można także bez problemu nagrać na zwykłą płytę DVD lub przenieś na zewnętrzną pamięć.

Ważne jest również to, że tą wersję mogą obejrzeć osoby, których sprzęt ma ograniczenia w postaci obsługi tylko formatu FAT, jak wiadomo taki format obsłuży filmy, które mają maksymalnie 4GB, więc w tym przypadku ta wersja jest też dla nich.

TÄ? KOPIE WYKONA? LEON 345 SPECJALNIE DLA WAS

General

Format : Matroska
Format version : Version 2
File size : 3.97 GiB
Duration : 52mn 51s
Overall bit rate : 10.8 Mbps
Movie name : PLANET_DINOSAUR_3D_3DT.Title8.Bluray3DRip
Encoded date : UTC 2012-12-04 17:18:34
Writing application : mkvmerge v5.7.0 ('The Whirlwind') built on Jul 8 2012 20:08:51
Writing library : libebml v1.2.3 + libmatroska v1.3.0

Video
ID : 1
Format : AVC
Format/Info : Advanced Video Codec
Format profile : High@L4.1
Format settings, CABAC : Yes
Format settings, ReFrames : 2 frames
Codec ID : V_MPEG4/ISO/AVC
Duration : 52mn 51s
Bit rate : 9 458 Kbps
Width : 1 920 pixels
Height : 1 080 pixels
Display aspect ratio : 16:9
Frame rate mode : Constant
Frame rate : 23.976 fps
Color space : YUV
Chroma subsampling : 4:2:0
Bit depth : 8 bits
Scan type : Progressive
Bits/(Pixel*Frame) : 0.190
Stream size : 3.49 GiB (88%)
Title : Rip by Leon 345
Writing library : x264 core
Default : Yes
Forced : No
Color primaries : BT.709
Transfer characteristics : BT.709
Matrix coefficients : BT.709

Audio #1
ID : 2
Format : AC-3
Format/Info : Audio Coding 3
Mode extension : CM (complete main)
Format settings, Endianness : Big
Codec ID : A_AC3
Duration : 52mn 51s
Bit rate mode : Constant
Bit rate : 448 Kbps
Channel(s) : 6 channels
Channel positions : Front: L C R, Side: L R, LFE
Sampling rate : 48.0 KHz
Bit depth : 16 bits
Compression mode : Lossy
Stream size : 169 MiB (4%)
Title : AC3 5.1 Polski
Language : Polish
Default : Yes
Forced : Yes

Audio #2
ID : 3
Format : AC-3
Format/Info : Audio Coding 3
Mode extension : CM (complete main)
Format settings, Endianness : Big
Codec ID : A_AC3
Duration : 52mn 51s
Bit rate mode : Constant
Bit rate : 640 Kbps
Channel(s) : 6 channels
Channel positions : Front: L C R, Side: L R, LFE
Sampling rate : 48.0 KHz
Bit depth : 16 bits
Compression mode : Lossy
Stream size : 242 MiB (6%)
Title : AC 3 5.1
Language : English
Default : No
Forced : No

Menu
00:00:00.000 : en:(01)00:00:00:000
00:09:08.965 : en:(02)00:09:08:965
00:15:32.056 : en:(03)00:15:32:056
00:22:49.326 : en:(04)00:22:49:326
00:29:03.324 : en:(05)00:29:03:324
00:36:43.826 : en:(06)00:36:43:826
00:43:18.512 : en:(07)00:43:18:512
00:52:15.090 : en:(08)00:52:15:090


Source [thx!]:

V-Planet Dinosaur (2012) Blu-ray 3D 1080p AVC DTS-HD 5.1-3DT
A-DVDSEED - Gogeta

zapraszam wszystkich chętnych i pamiętajcie udostępniać innym bo mało tego było a tak piloty już się nie kurzą. Dostajecie za darmo więc dajcie innym !!!

Dostępne napisy
Brak napisów
Szczegóły torrenta
Tracker http://fr33dom.h33t.com:3310/announce
Multitracker [ Pokaż ]
Kategoria: » » » [Zgłoś błąd]
Dodane 03-10-2017
Podziękowali:
0 użytkowników 
Podziękuj!
Pokaż / Ukryj pliki:
Nazwa pliku Rozmiar
PLANET_DINOSAUR_3D_PL(Leon 345).mkv 3.97 GB
60231e7493d36a732c1926a5996401be.jpg 128.69 KB
Poradnik Leona do filmów 3D.txt 20.72 KB
Open.txt 0.14 KB
4 plików
Brak komentarzy...
Graveyard Keeper *Neue Version/DLC Graveyard.Keeper.MULTi11-ElAmigos 178 MBAbenteuer+++ | Find Mirrors | डाउनलोड APK