Enable / Włącz Javascript
 Widok 
 Kategorie 
 Nitro Torrent w sieci 
 Top 10 użytkowników 
 Perła oceanów 3D(OU) Ocean Wonderland 3D (2003) [mini-HD 1080p Over-Under AC3 x264-LEON 345][Lektor PL]

Perła oceanów 3D(OU) Ocean Wonderland 3D (2003) [mini-HD 1080p Over-Under AC3 x264-LEON 345][Lektor PL]
Kategoria: » » »
Dodane: 03/10/2017
Rozmiar: 1.57 GB
Uploader: tomysparow559 (10)
seed(ów): 0
leecher(ów): 0
Pobrane: 19
Komentarzy: 0
Pobierz Torrent Pobierz Torrent
Pobierz [Magnet] Pobierz [Magnet]

Obserwuj
Raportuj
Film w wersji 3D Over-Under.
Do odtworzenia filmu WYMAGANY odpowiedni sprzęt (TV 3D).

Kopia mini-HD 1080p = tylko 1,57 GB

reżyseria: Jean-Jacques Mantello
scenariusz: Mark Spalding
premiera: 11 lutego 2003 (Świat) 2003-02-11
produkcja: Francja
gatunek: Dokumentalny, Familijny, Krótkometrażowy

Rafy koralowe potrzebują specjalnych warunków żeby przetrwać. Często ich naturalne środowisko jest niszczone przez powodzie, huragany, zmiany prądów morskich. Dzisiaj dodatkowo jeszcze dochodzi czynnik ludzki, który coraz bardziej zagraża tym niezwykle wrażliwym stworzeniom. Autorzy filmu prezentują wspaniałość i zagrożenia tego delikatnego świata, ostrzegając przed skutkami rabunkowej gospodarki, która może doprowadzić do tego, iż nasze dzieci nigdy nie ujrzą tego bogatego i zachwycającego świata w naturze.

Kopie 3D SBS(OU) mini-HD, to kopie specjalistyczne o dużej rozdzielczości (1920 x 1080 ), które mimo niewielkiego ciężaru (w MB) zachowują wysoką jakość.

Szczególnie polecam tym, którzy chcą zaoszczędzić czas i przestrzeń na dysku.

Taką kopię można także bez problemu nagrać na zwykłą płytę DVD lub przenieś na zewnętrzną pamięć.

Ważne jest również to, że tą wersję mogą obejrzeć osoby, których sprzęt ma ograniczenia w postaci obsługi tylko formatu FAT, jak wiadomo taki format obsłuży filmy, które mają maksymalnie 4GB, więc w tym przypadku ta wersja jest też dla nich.

TĄ KOPIE WYKONAŁ LEON 345

General
Complete name : E:FilmyFilmy 3DSBS 3DImax_Perła oceanów 3D (Leon 345)OCEANWONDERLAND.(Leon 345).mkv
Format : Matroska
File size : 1.57 GiB
Duration : 40mn 38s
Overall bit rate : 5 539 Kbps
Movie name : OCEANWONDERLAND.Title1.Bluray3DRip
Encoded date : UTC 2012-04-12 09:31:32
Writing application : DVDFab
Writing library : libebml v0.7.8 + libmatroska v0.8.1

Video
ID : 1
Format : AVC
Format/Info : Advanced Video Codec
Format profile : High@L5.1
Format settings, CABAC : Yes
Format settings, ReFrames : 2 frames
Muxing mode : Container profile=Unknown@5.1
Codec ID : V_MPEG4/ISO/AVC
Duration : 40mn 35s
Bit rate : 5 045 Kbps
Width : 1 920 pixels
Height : 1 080 pixels
Display aspect ratio : 16:9
Frame rate : 23.976 fps
Resolution : 8 bits
Colorimetry : 4:2:0
Scan type : Progressive
Bits/(Pixel*Frame) : 0.101
Stream size : 1.43 GiB (91%)
Writing library : x264 core
Color primaries : BT.709-5, BT.1361, IEC 61966-2-4, SMPTE RP177
Transfer characteristics : BT.709-5, BT.1361
Matrix coefficients : BT.709-5, BT.1361, IEC 61966-2-4 709, SMPTE RP177

Audio
ID : 2
Format : AC-3
Format/Info : Audio Coding 3
Codec ID : A_AC3
Duration : 40mn 38s
Bit rate mode : Constant
Bit rate : 384 Kbps
Channel(s) : 6 channels
Channel positions : Front: L C R, Side: L R, LFE
Sampling rate : 48.0 KHz
Stream size : 112 MiB (7%)
Language : Polish

Menu
00:00:00.000 : en:(01)00:00:00:000
00:06:44.737 : en:(02)00:06:44:737
00:10:22.163 : en:(03)00:10:22:163
00:14:43.507 : en:(04)00:14:43:507
00:20:04.870 : en:(05)00:20:04:870
00:25:03.084 : en:(06)00:25:03:084
00:31:28.177 : en:(07)00:31:28:177
00:37:36.545 : en:(08)00:37:36:545
00:40:39.520 : en:(09)00:40:39:520

Leon 345
Dostępne napisy
Brak napisów
Szczegóły torrenta
Tracker http://i.bandito.org/announce
Multitracker [ Pokaż ]
Kategoria: » » » [Zgłoś błąd]
Dodane 03-10-2017
Podziękowali:
0 użytkowników 
Podziękuj!
Pokaż / Ukryj pliki:
Nazwa pliku Rozmiar
OCEANWONDERLAND.(Leon 345).mkv 1.57 GB
mini hd(Leon 345).jpg 139.97 KB
Poradnik Leona do filmów 3D.txt 17.69 KB
info.url 0.11 KB
4 plików
Brak komentarzy...
Sonntag 11.11.2018 18:50 | Mỹ - Châu Âu | Lederbnder