Enable / Włącz Javascript
 Widok 
 Kategorie 
 Nitro Torrent w sieci 
 Top 10 użytkowników 
 Perła oceanów 3D - Ocean Wonderland *2003* (IMAX) [mini-HD.1080p.3D.Half.Over-Under.DTS-HD High Res.5.1.AC3.BluRay.x264-SONDA] [Lektor i Napisy PL] [ENG] [AT-TEAM]

Perła oceanów 3D - Ocean Wonderland *2003* (IMAX) [mini-HD.1080p.3D.Half.Over-Under.DTS-HD High Res.5.1.AC3.BluRay.x264-SONDA] [Lektor i Napisy PL] [ENG] [AT-TEAM]
Kategoria: » » »
Dodane: 03/10/2017
Rozmiar: 3.96 GB
Uploader: sabongunity.com❱ Wędrowiec
seed(ów): 0
leecher(ów): 0
Pobrane: 28
Komentarzy: 0
Pobierz Torrent Pobierz Torrent
Pobierz [Magnet] Pobierz [Magnet]

Obserwuj
Raportuj


Film w wersji 3D Over-Under
Do odtworzenia filmu WYMAGANY odpowiedni sprzęt (TV 3D).
==========================================

Kopia mini-HD 1080p = 3,96 GB

gatunek: Dokumentalny,Familijny,Krótkometrażowy
produkcja: Francja
premiera: 11 lutego 2003 (świat)
reżyseria: Jean-Jacques Mantello
scenariusz: Mark Spalding

http://www.imdb.com/title/tt0404286/
http://www.filmweb.pl/film?id=293663

Storyline:

This is the closest you can get to dive without being there! Shot on the Great Barrier Reef in Australia and in the Bahamas, This Documentery brings to you the amazing beauty of the many varieties of coral and the immense diversity of the marine life thriving there.

Opis:
Jean-Michel Cousteau przedstawia film ?Perła oceanów 3D". Niezapomniana podróż w głębię samego serca oceanów - raf koralowych. Od australijskiej Wielkiej Rafy Koralowej aż po brzegi Wysp Bahama naszym przewodnikiem jest przyjacielski żółw, Aris, który oprowadzi nas po tym pięknym i magicznym świecie. Autorzy filmu prezentują wspaniałości i zagrożenia tego delikatnego świata. Uświadamiają jak znaczącą rolę odgrywają rafy koralowe w morskim ekosystemie

Screenshots:

[Oryginalny obrazek]
[Oryginalny obrazek]

[Oryginalny obrazek]


General
Format                                   : Matroska
Format version                           : Version 2
File size                                : 3.96 GiB
Duration                                 : 40mn 38s
Overall bit rate mode                    : Variable
Overall bit rate                         : 14.0 Mbps
Movie name                               : OCEANWONDERLAND_3D.Bluray3D Rip by Sonda [AT-Team]
Encoded date                             : UTC 2015-06-09 16:40:17
Writing application                      : mkvmerge v5.7.0 ('The Whirlwind') built on Jul  8 2012 20:08:51
Writing library                          : libebml v1.2.3 + libmatroska v1.3.0

Video
ID                                       : 1
Format                                   : AVC
Format/Info                              : Advanced Video Codec
Format profile                           : High@L4.1
Format settings, CABAC                   : Yes
Format settings, ReFrames                : 2 frames
Codec ID                                 : V_MPEG4/ISO/AVC
Duration                                 : 40mn 38s
Bit rate mode                            : Variable
Bit rate                                 : 11.2 Mbps
Maximum bit rate                         : 17.7 Mbps
Width                                    : 1 920 pixels
Height                                   : 1 080 pixels
Display aspect ratio                     : 1.78:1
Frame rate mode                          : Constant
Frame rate                               : 23.976 fps
Color space                              : YUV
Chroma subsampling                       : 4:2:0
Bit depth                                : 8 bits
Scan type                                : Progressive
Bits/(Pixel*Frame)                       : 0.226
Stream size                              : 3.19 GiB (81%)
Title                                    : Rip by Sonda
Default                                  : Yes
Forced                                   : No

Audio #1
ID                                       : 2
Format                                   : AC-3
Format/Info                              : Audio Coding 3
Mode extension                           : CM (complete main)
Format settings, Endianness              : Big
Codec ID                                 : A_AC3
Duration                                 : 40mn 38s
Bit rate mode                            : Constant
Bit rate                                 : 384 Kbps
Channel(s)                               : 6 channels
Channel positions                        : Front: L C R, Side: L R, LFE
Sampling rate                            : 48.0 KHz
Bit depth                                : 16 bits
Compression mode                         : Lossy
Stream size                              : 112 MiB (3%)
Title                                    : AC3 5.1 Lektor PL
Language                                 : Polish
Default                                  : Yes
Forced                                   : Yes

Audio #2
ID                                       : 3
Format                                   : DTS
Format/Info                              : Digital Theater Systems
Format profile                           : HRA / Core
Mode                                     : 16
Format settings, Endianness              : Big
Codec ID                                 : A_DTS
Duration                                 : 40mn 38s
Bit rate mode                            : Constant
Bit rate                                 : 2 046 Kbps / 1 509 Kbps
Channel(s)                               : 6 channels
Channel positions                        : Front: L C R, Side: L R, LFE
Sampling rate                            : 48.0 KHz
Bit depth                                : 16 bits
Compression mode                         : Lossy
Stream size                              : 595 MiB (15%)
Title                                    : DTS-HD High Res 5.1 Original
Language                                 : English
Default                                  : No
Forced                                   : No

Text
ID                                       : 4
Format                                   : PGS
Muxing mode                              : zlib
Codec ID                                 : S_HDMV/PGS
Codec ID/Info                            : The same subtitle format used on BDs/HD-DVDs
Title                                    : Napisy PL 3D
Language                                 : Polish
Default                                  : No
Forced                                   : No

Menu
00:00:00.000                             : en:(01)00:00:00:000
00:06:44.737                             : en:(02)00:06:44:737
00:10:22.163                             : en:(03)00:10:22:163
00:14:43.507                             : en:(04)00:14:43:507
00:20:04.870                             : en:(05)00:20:04:870
00:25:03.084                             : en:(06)00:25:03:084
00:31:28.177                             : en:(07)00:31:28:177
00:37:36.545                             : en:(08)00:37:36:545
00:40:39.520                             : en:(09)00:40:39:520

Source:
A/V-BD3D


.:: Sonda ::.


Dostępne napisy
Brak napisów
Szczegóły torrenta
Tracker http://tracker.aletorrenty.pl:2710/announce
Multitracker [ Pokaż ]
Kategoria: » » » [Zgłoś błąd]
Dodane 03-10-2017
Podziękowali:
0 użytkowników 
Podziękuj!
Pokaż / Ukryj pliki:
Nazwa pliku Rozmiar
info/Torrent downloaded from sonda torrents at aletorrenty.pl.txt 0.38 KB
info/Torrent downloaded from Sonda torrents at BTS.to.txt 0.11 KB
info/Torrent downloaded from Sonda torrents at AhaShare.com.txt 0.06 KB
info/Torrent downloaded from sonda torrents at h33t.to.txt 0.04 KB
info/Torrent downloaded from sonda000 torrents at demonoid.ph.txt 0.02 KB
OCEAN_WONDERLAND_3D.2003.PL.miniHD.1080p(Sonda).mkv 3.96 GB
66548034201212011733283864015592360_002.jpg 173.99 KB
Upload by Sonda [AT-TEAM].jpg 45.62 KB
OCEAN_WONDERLAND_3D.2003.PL.miniHD.1080p(Sonda).srt 18.66 KB
Read iNFO.txt 2.07 KB
Ale Torrenty Team enjoy !.url 0.11 KB
11 plików
Brak komentarzy...
Brettspiele | Unduh APK | Apple Iphone 7 128gb Silber Neu Ovp Versiegelt Händler Rechnung