Enable / Włącz Javascript
 Widok 
 Kategorie 
 Nitro Torrent w sieci 
 Top 10 użytkowników 
 Orange Is the New Black - Sezon 6 [1080p.NF.WEB-DL.H.264.DDP5.1] [Lektor PL]

Orange Is the New Black - Sezon 6 [1080p.NF.WEB-DL.H.264.DDP5.1] [Lektor PL] wielopaczka
Kategoria: » » » »
Dodane: 27/07/2018
Rozmiar: 23.74 GB
Uploader: Lukarusi (1)
seed(ów): 10
leecher(ów): 53
Pobrane: 75
Komentarzy: 0
Pobierz Torrent Pobierz Torrent
Pobierz [Magnet] Pobierz [Magnet]

Obserwuj
Raportuj
Info

produkcja: USA
gatunek: Dramat, Komedia
scenariusz: Jenji Kohan, Liz Friedman
reżyseria: Andrew McCarthy, Jodie Foster, Matthew Penn
zdjęcia: Vanja Cernjul, Yaron Orbach
muzyka: Regina Spektor, Scott Doherty, Brandon Jay
czas trwania: ok. 49-84 min.

Opis

Komediodramat oparty na bestsellerowych wspomnieniach autorstwa Piper Kerman pod tym samym tytułem. Dobrze sytuowana, niedawno zaręczona mieszkanka Brooklynu Piper Chapman, zostaje skazana na karę roku pozbawienia wolności w więzieniu federalnym, na skutek związku z dilerką narkotyków Alex sprzed blisko dekady. Aby zapłacić swój dług wobec społeczeństwa, Piper musi zamienić swoje wygodne życie w Nowym Jorku, u boku narzeczonego Larry'ego, na pomarańczowy kombinezon i zaskakującą społeczność więzienną. Wkrótce zaczyna kwestionować wszystko w co dotąd wierzyła i tworzyć nowe, nieoczekiwane sojusze z grupą ekscentrycznych i szczerych do bólu więźniarek.

Obsada

Taylor Schilling - Piper Chapman
Laura Prepon - Alex Vause
Jason Biggs - Larry Bloom
Danielle Brooks - Tasha "Taystee" Jefferson
Natasha Lyonne - Nicky Nichols
Kate Mulgrew - Galina "Red" Reznikov
Michael J. Harney - Sam Healy
Michelle Hurst - Miss Claudette

Dane Techniczne

Format : Matroska
Format version : Version 4 / Version 2
File size : 1.79 GiB
Duration : 53 min 57 s
Overall bit rate : 4 746 kb/s
Encoded date : UTC 2018-07-27 13:54:41

Video
ID : 1
Format : AVC
Format/Info : Advanced Video Codec
Format profile : Main@L4
Format settings : CABAC / 3 Ref Frames
Format settings, CABAC : Yes
Format settings, ReFrames : 3 frames
Codec ID : V_MPEG4/ISO/AVC
Duration : 53 min 57 s
Bit rate : 4 553 kb/s
Width : 1 920 pixels
Height : 1 080 pixels
Display aspect ratio : 16:9
Frame rate mode : Constant
Frame rate : 23.976 (24000/1001) FPS
Color space : YUV
Chroma subsampling : 4:2:0
Bit depth : 8 bits
Scan type : Progressive
Bits/(Pixel*Frame) : 0.092
Stream size : 1.72 GiB (96%)
Default : Yes
Forced : Yes

Audio
ID : 2
Format : E-AC-3
Format/Info : Enhanced Audio Coding 3
Codec ID : A_EAC3
Duration : 53 min 57 s
Bit rate mode : Constant
Bit rate : 192 kb/s
Channel(s) : 6 channels
Channel positions : Front: L C R, Side: L R, LFE
Sampling rate : 48.0 kHz
Frame rate : 187.500 FPS (256 SPF)
Compression mode : Lossy
Stream size : 74.1 MiB (4%)
Language : Polish
Service kind : Complete Main
Default : Yes
Forced : Yes

Text
ID : 3
Format : UTF-8
Codec ID : S_TEXT/UTF8
Codec ID/Info : UTF-8 Plain Text
Duration : 1 min 30 s
Bit rate : 8 b/s
Count of elements : 4
Stream size : 94.0 Bytes (0%)
Default : Yes
Forced : Yes
Dostępne napisy
Brak napisów
Szczegóły torrenta
Tracker http://tracker.vanitycore.co:6969/announce
Multitracker [ Pokaż ]
Kategoria: » » » » [Zgłoś błąd]
Dodane 27-07-2018
Podziękowali:
0 użytkowników 
Podziękuj!
Pokaż / Ukryj pliki:
Nazwa pliku Rozmiar
Orange Is the New Black S06E01 - Któż wie to lepiej niż ja [1080p.NF.WEB-DL.H.264.DDP5.1] [Lektor PL].mkv 1.79 GB
Orange Is the New Black S06E02 - Nadchodzi gównoburza [1080p.NF.WEB-DL.H.264.DDP5.1] [Lektor PL].mkv 1.52 GB
Orange Is the New Black S06E03 - Dbaj o swój interes [1080p.NF.WEB-DL.H.264.DDP5.1] [Lektor PL].mkv 1.64 GB
Orange Is the New Black S06E04 - Jestem gadającym osłem [1080p.NF.WEB-DL.H.264.DDP5.1] [Lektor PL].mkv 1.69 GB
Orange Is the New Black S06E05 - Noc Psot [1080p.NF.WEB-DL.H.264.DDP5.1] [Lektor PL].mkv 1.83 GB
Orange Is the New Black S06E06 - Stan macicy [1080p.NF.WEB-DL.H.264.DDP5.1] [Lektor PL].mkv 1.54 GB
Orange Is the New Black S06E07 - Wiatr zmian [1080p.NF.WEB-DL.H.264.DDP5.1] [Lektor PL].mkv 1.99 GB
Orange Is the New Black S06E08 - Gordony [1080p.NF.WEB-DL.H.264.DDP5.1] [Lektor PL].mkv 1.92 GB
Orange Is the New Black S06E09 - Przetnij sznurek [1080p.NF.WEB-DL.H.264.DDP5.1] [Lektor PL].mkv 1.64 GB
Orange Is the New Black S06E10 - Czekoladowy shake [1080p.NF.WEB-DL.H.264.DDP5.1] [Lektor PL].mkv 1.64 GB
Orange Is the New Black S06E11 - Mroczny trening [1080p.NF.WEB-DL.H.264.DDP5.1] [Lektor PL].mkv 1.66 GB
Orange Is the New Black S06E12 - Podwójne kłopoty [1080p.NF.WEB-DL.H.264.DDP5.1] [Lektor PL].mkv 1.64 GB
Orange Is the New Black S06E13 - Wolność [1080p.NF.WEB-DL.H.264.DDP5.1] [Lektor PL].mkv 3.23 GB
13 plików
Brak komentarzy...
Cultural Management Issues in International Business | Ancienne Lampe Baladeuse - Deco Atelier / Garage / Loft - Vintage 60’s | Most Watched