Enable / Włącz Javascript
 Widok 
 Kategorie 
 Nitro Torrent w sieci 
 Top 10 użytkowników 
 Nitro Circus: The Movie 3D (OU) *2012* [1080p Half Over-Under Dual audio AC3 BluRay x264-LEON 345] [Lektor PL]

Nitro Circus: The Movie 3D (OU) *2012* [1080p Half Over-Under Dual audio AC3 BluRay x264-LEON 345] [Lektor PL]
Kategoria: » » »
Dodane: 03/10/2017
Rozmiar: 7.03 GB
Uploader: sabongunity.com❱ Wędrowiec
seed(ów): 0
leecher(ów): 0
Pobrane: -
Komentarzy: 0
Pobierz Torrent Pobierz Torrent
Pobierz [Magnet] Pobierz [Magnet]

Obserwuj
Raportuj

Film w wersji 3D Over-Under.
Do odtworzenia filmu WYMAGANY odpowiedni sprzęt (TV 3D)
===================================================

gatunek: Dokumentalny, Komedia, Akcja
produkcja: USA
premiera: 10 sierpnia 2012 (świat)
reżyseria: Gregg Godfrey, Jeremy Rawle
scenariusz: Gregg Godfrey, Jeremy Rawle, Travis Pastrana

Travis Pastrana razem ze swoimi świetnie wyszkolonymi kolegami, pokazuje czasami wręcz nieprawdopodobne ekstremalne ewolucje.

TÄ? KOPIE WYKONA? LEON 345 SPECJALNIE DLA WAS

General

Format : Matroska
Format version : Version 2
File size : 7.03 GiB
Duration : 1h 31mn
Overall bit rate mode : Variable
Overall bit rate : 11.0 Mbps
Encoded date : UTC 2013-02-23 13:25:22
Writing application : mkvmerge v5.7.0 ('The Whirlwind') built on Jul 8 2012 20:08:51
Writing library : libebml v1.2.3 + libmatroska v1.3.0

Video
ID : 1
Format : AVC
Format/Info : Advanced Video Codec
Format profile : High@L4.0
Format settings, CABAC : Yes
Format settings, ReFrames : 2 frames
Codec ID : V_MPEG4/ISO/AVC
Duration : 1h 31mn
Bit rate mode : Variable
Bit rate : 10.0 Mbps
Maximum bit rate : 15.0 Mbps
Width : 1 920 pixels
Height : 1 080 pixels
Display aspect ratio : 16:9
Frame rate mode : Constant
Frame rate : 23.976 fps
Color space : YUV
Chroma subsampling : 4:2:0
Bit depth : 8 bits
Scan type : Progressive
Bits/(Pixel*Frame) : 0.200
Stream size : 6.24 GiB (89%)
Title : Rip by Leon 345 encoding 2 pass
Writing library : x264 core 129 r2230 1cffe9f
Default : Yes
Forced : No

Audio #1
ID : 2
Format : AC-3
Format/Info : Audio Coding 3
Mode extension : CM (complete main)
Format settings, Endianness : Big
Codec ID : A_AC3
Duration : 1h 31mn
Bit rate mode : Constant
Bit rate : 384 Kbps
Channel(s) : 6 channels
Channel positions : Front: L C R, Side: L R, LFE
Sampling rate : 48.0 KHz
Bit depth : 16 bits
Compression mode : Lossy
Stream size : 252 MiB (4%)
Title : AC3 5.1 Lektor PL z DVD
Language : Polish
Default : Yes
Forced : Yes

Audio #2
ID : 3
Format : AC-3
Format/Info : Audio Coding 3
Mode extension : CM (complete main)
Format settings, Endianness : Big
Codec ID : A_AC3
Duration : 1h 31mn
Bit rate mode : Constant
Bit rate : 640 Kbps
Channel(s) : 6 channels
Channel positions : Front: L C R, Side: L R, LFE
Sampling rate : 48.0 KHz
Bit depth : 16 bits
Compression mode : Lossy
Stream size : 420 MiB (6%)
Title : AC3 5.1 Orginal
Language : English
Default : No
Forced : No

Text
ID : 4
Format : UTF-8
Codec ID : S_TEXT/UTF8
Codec ID/Info : UTF-8 Plain Text
Default : Yes
Forced : Yes

Source [thx]:
A/V-Nitro.Circus.The.Movie.2012.3D.BluRay.1080p.AVC.DTS-HD.MA5.1-CHDBits
Polski Lektor - DVD9/CiNEMAET


zapraszam wszystkich chętnych i pamiętajcie udostępniać innym bo mało tego było a tak piloty już się nie kurzą. Dostajecie za darmo więc dajcie innym !!!

Dostępne napisy
Brak napisów
Szczegóły torrenta
Tracker http://fr33dom.h33t.com:3310/announce
Multitracker [ Pokaż ]
Kategoria: » » » [Zgłoś błąd]
Dodane 03-10-2017
Podziękowali:
0 użytkowników 
Podziękuj!
Pokaż / Ukryj pliki:
Nazwa pliku Rozmiar
NITRO_CIRCUS_THE_MOVIE_3D(LEON_345).mkv 7.03 GB
54127_front.jpg 97.36 KB
Poradnik Leona do filmów 3D.txt 23.01 KB
Open.txt 0.14 KB
4 plików
Brak komentarzy...
Megaman NT Warrior (52) | épisode 9 streaming | PUKKA TEA Advent Christmas Calendar 24 Tea Sachets