Enable / Włącz Javascript
 Widok 
 Kategorie 
 Nitro Torrent w sieci 
 Top 10 użytkowników 
 Niezwykły Ocean 3D (OU) - Amazing Ocean *2012* [mini-HD 1080p Over-Under Dual audio DTS HD MA 2 0 AC3 BluRay x264-LEON 345] [Lektor i Napisy PL]

Niezwykły Ocean 3D (OU) - Amazing Ocean *2012* [mini-HD 1080p Over-Under Dual audio DTS HD MA 2 0 AC3 BluRay x264-LEON 345] [Lektor i Napisy PL]
Kategoria: » » »
Dodane: 03/10/2017
Rozmiar: 3.58 GB
Uploader: sabongunity.com❱ Wędrowiec
seed(ów): 0
leecher(ów): 0
Pobrane: 18
Komentarzy: 0
Pobierz Torrent Pobierz Torrent
Pobierz [Magnet] Pobierz [Magnet]

Obserwuj
Raportuj
Film w wersji 3D Over-Under.
Do odtworzenia filmu WYMAGANY odpowiedni sprzęt (TV 3D)
==========================================================

Kopia mini-HD 1080p = tylko 3,57 GB

gatunek: Dokumentalny
premiera: 2012

Fantastyczna podróż w 3D przez magicznie piękny, głęboki, błękitny ocean! Pozwól, by zadziwiły cię ławice małych rybek, które wpływają właśnie do twego salonu! Zobacz z bliska kałamarnice i nieuchwytne ośmiornice, jak również wspaniałe diabły morskie; przygotuj się na spotkanie z delfinami i żółwiami morskimi, które odwiedzą cię na twojej sofie! Film nakręcony w technice stereoskopowej 3D jest zapierającą dech propozycją filmową dla całej rodziny. Świetna zabawa dla widzów w każdym wieku !

Kopie 3D SBS (OU) mini-HD, to kopie specjalistyczne o dużej rozdzielczości (1920 x 1080), które mimo niewielkiego ciężaru (w MB) zachowują wysoką jakość.

Szczególnie polecam tym, którzy chcą zaoszczędzić czas i przestrzeń na dysku.

Taką kopię można także bez problemu nagrać na zwykłą płytę DVD lub przenieś na zewnętrzną pamięć.

Ważne jest również to, że tą wersję mogą obejrzeć osoby, których sprzęt ma ograniczenia w postaci obsługi tylko formatu FAT, jak wiadomo taki format obsłuży filmy, które mają maksymalnie 4GB, więc w tym przypadku ta wersja jest też dla nich.

TÄ? KOPIE WYKONA? LEON 345 SPECJALNIE DLA WAS

General

Format : Matroska
Format version : Version 2
File size : 3.57 GiB
Duration : 49mn 12s
Overall bit rate mode : Variable
Overall bit rate : 10.4 Mbps
Movie name : AMAZING_OCEAN_3D_BLUEBIRD.Title175.Bluray3DRip
Encoded date : UTC 2012-12-03 19:22:02
Writing application : mkvmerge v5.7.0 ('The Whirlwind') built on Jul 8 2012 20:08:51
Writing library : libebml v1.2.3 + libmatroska v1.3.0

Video
ID : 1
Format : AVC
Format/Info : Advanced Video Codec
Format profile : High@L4.1
Format settings, CABAC : Yes
Format settings, ReFrames : 2 frames
Codec ID : V_MPEG4/ISO/AVC
Duration : 49mn 12s
Bit rate : 7 803 Kbps
Width : 1 920 pixels
Height : 1 080 pixels
Display aspect ratio : 16:9 (1,78 :1)
Frame rate mode : Constant
Frame rate : 23.976 fps
Color space : YUV
Chroma subsampling : 4:2:0
Bit depth : 8 bits
Scan type : Progressive
Bits/(Pixel*Frame) : 0.157
Stream size : 2.68 GiB (75%)
Title : Rip by Leon 345
Writing library : x264 core
Default : Yes
Forced : No
Color primaries : BT.709
Transfer characteristics : BT.709
Matrix coefficients : BT.709

Audio #1
ID : 2
Format : AC-3
Format/Info : Audio Coding 3
Mode extension : CM (complete main)
Format settings, Endianness : Big
Codec ID : A_AC3
Duration : 49mn 12s
Bit rate mode : Constant
Bit rate : 384 Kbps
Channel(s) : 2 channels
Channel positions : Front: L R
Sampling rate : 48.0 KHz
Bit depth : 16 bits
Compression mode : Lossy
Stream size : 135 MiB (4%)
Title : AC3 2.0 Polski
Language : Polish
Default : Yes
Forced : No

Audio #2
ID : 3
Format : DTS
Format/Info : Digital Theater Systems
Codec ID : A_DTS
Duration : 49mn 12s
Bit rate mode : Constant
Bit rate : 448 Kbps
Channel(s) : 2 channels
Channel positions : Front: L R
Sampling rate : 48.0 KHz
Bit depth : 16 bits
Compression mode : Lossy
Stream size : 158 MiB (4%)
Title : DTS 2.0 Polski Orginal
===========================
Language : Polish
Default : No
Forced : No

Audio #3
ID : 4
Format : DTS
Format/Info : Digital Theater Systems
Format profile : MA / Core
Codec ID : A_DTS
Duration : 49mn 12s
Bit rate mode : Variable
Bit rate : 1 746 Kbps / 1 510 Kbps
Channel(s) : 2 channels
Channel positions : Front: L R
Sampling rate : 48.0 KHz
Bit depth : 24 bits
Compression mode : Lossless / Lossy
Title : DTS HD MA 2.0 Orginal
Language : English
Default : No
Forced : No

Text
ID : 5
Format : VobSub
Muxing mode : zlib
Codec ID : S_VOBSUB
Codec ID/Info : The same subtitle format used on DVDs
Language : Polish
Default : No
Forced : No

Menu
00:00:00.000 : en:(01)00:00:00:000
00:06:21.047 : en:(02)00:06:21:047
00:14:01.382 : en:(03)00:14:01:382
00:20:29.019 : en:(04)00:20:29:019
00:26:02.644 : en:(05)00:26:02:644
00:32:00.209 : en:(06)00:32:00:209
00:37:19.737 : en:(07)00:37:19:737
00:42:41.809 : en:(08)00:42:41:809
00:49:13.325 : en:(09)00:49:13:325

Source [thx!]:

Amazing Ocean (2012) Blu-ray 3D CEE 1080p AVC DTS 2.0- BLUEBIRD

Dostępne napisy
Brak napisów
Szczegóły torrenta
Tracker http://fr33dom.h33t.com:3310/announce
Multitracker [ Pokaż ]
Kategoria: » » » [Zgłoś błąd]
Dodane 03-10-2017
Podziękowali:
0 użytkowników 
Podziękuj!
Pokaż / Ukryj pliki:
Nazwa pliku Rozmiar
Napisy 3D PL/AMAZING_OCEAN_3D_BLUEBIRD(Leon 345).sub 2.71 MB
Napisy 3D PL/AMAZING_OCEAN_3D_BLUEBIRD(Leon 345).idx 16.32 KB
AMAZING_OCEAN_3D_BLUEBIRD(Leon 345).mkv 3.57 GB
59693_front.jpg 158.56 KB
Poradnik Leona do filmów 3D.txt 20.74 KB
Open.txt 0.14 KB
6 plików
Brak komentarzy...
Legendado | Senran Kagura Season 2 Episode 5 Subtitle Indonesia | Casio FX-85GTPLUS Wissenschaftl. Taschenrechner NEU und OVP