Enable / Włącz Javascript
 Widok 
 Kategorie 
 Nitro Torrent w sieci 
 Top 10 użytkowników 
 Niedźwiedzie Polarne 3D (OU) - Polar Bears: A Summer Odyssey *2012* [mini-HD 1080p Over-Under Dualaudio DTS HD 5 1 AC3 BluRay x264-LEON 345] [Lektor i Napisy PL]

Niedźwiedzie Polarne 3D (OU) - Polar Bears: A Summer Odyssey *2012* [mini-HD 1080p Over-Under Dualaudio DTS HD 5 1 AC3 BluRay x264-LEON 345] [Lektor i Napisy PL]
Kategoria: » » »
Dodane: 03/10/2017
Rozmiar: 3.51 GB
Uploader: sabongunity.com❱ Wędrowiec
seed(ów): 0
leecher(ów): 0
Pobrane: 1
Komentarzy: 0
Pobierz Torrent Pobierz Torrent
Pobierz [Magnet] Pobierz [Magnet]

Obserwuj
Raportuj
Film w wersji 3D Over-Under.
Do odtworzenia filmu WYMAGANY odpowiedni sprzęt (TV 3D)
==========================================================

Kopia mini-HD 1080p = tylko 3,51 GB

gatunek: Dokumentalny
produkcja: Kanada
premiera: 8 listopada 2012

Niedźwiedź polarny jest największym arktycznym ?predatorem? żyjącym na lodowcu? ale co się z nim stanie, kiedy zniknie lód? Film prezentuje zapierające dech zdjęcia w 3D robione w ciągu 12 miesięcy w Arktyce Kanadyjskiej. Operatorom udało się uchwycić zachowania niedźwiedzi, co jest niezwykle rzadkie i trudne do zarejestrowania. Poznaj fascynujące życie niedźwiedzi polarnych, których świat podlega obecnie niepokojącym przemianom.

Kopie 3D SBS (OU) mini-HD, to kopie specjalistyczne o dużej rozdzielczości (1920 x 1080), które mimo niewielkiego ciężaru (w MB) zachowują wysoką jakość.

Szczególnie polecam tym, którzy chcą zaoszczędzić czas i przestrzeń na dysku.

Taką kopię można także bez problemu nagrać na zwykłą płytę DVD lub przenieś na zewnętrzną pamięć.

Ważne jest również to, że tą wersję mogą obejrzeć osoby, których sprzęt ma ograniczenia w postaci obsługi tylko formatu FAT, jak wiadomo taki format obsłuży filmy, które mają maksymalnie 4GB, więc w tym przypadku ta wersja jest też dla nich.

TÄ? KOPIE WYKONA? LEON 345 SPECJALNIE DLA WAS

General

Format : Matroska
Format version : Version 2
File size : 3.51 GiB
Duration : 50mn 4s
Overall bit rate : 10.0 Mbps
Movie name : POLAR_BEARS_BLUEBIRD.Title1.Bluray3DRip
Encoded date : UTC 2012-12-02 15:50:13
Writing application : mkvmerge v5.7.0 ('The Whirlwind') built on Jul 8 2012 20:08:51
Writing library : libebml v1.2.3 + libmatroska v1.3.0

Video
ID : 1
Format : AVC
Format/Info : Advanced Video Codec
Format profile : High@L4.1
Format settings, CABAC : Yes
Format settings, ReFrames : 2 frames
Codec ID : V_MPEG4/ISO/AVC
Bit rate : 7 347 Kbps
Width : 1 920 pixels
Height : 1 080 pixels
Display aspect ratio : 16:9 (1,78 : 1)
Frame rate mode : Variable
Original frame rate : 23.976 fps
Color space : YUV
Chroma subsampling : 4:2:0
Bit depth : 8 bits
Scan type : Progressive
Title : Rip by Leon 345
Writing library : x264 core
Default : Yes
Forced : No
Color primaries : BT.709
Transfer characteristics : BT.709
Matrix coefficients : BT.709

Audio #1
ID : 2
Format : AC-3
Format/Info : Audio Coding 3
Mode extension : CM (complete main)
Format settings, Endianness : Big
Codec ID : A_AC3
Duration : 50mn 4s
Bit rate mode : Constant
Bit rate : 448 Kbps
Channel(s) : 6 channels
Channel positions : Front: L C R, Side: L R, LFE
Sampling rate : 48.0 KHz
Bit depth : 16 bits
Compression mode : Lossy
Stream size : 160 MiB (4%)
Title : AC3 5.1 Polski
Language : Polish
Default : Yes
Forced : Yes

Audio #2
ID : 3
Format : DTS
Format/Info : Digital Theater Systems
Format profile : HRA / Core
Codec ID : A_DTS
Duration : 50mn 4s
Bit rate mode : Constant
Bit rate : 2 047 Kbps / 1 510 Kbps
Channel(s) : 6 channels
Channel positions : Front: L C R, Side: L R, LFE
Sampling rate : 48.0 KHz
Bit depth : 16 bits
Compression mode : Lossy
Stream size : 733 MiB (20%)
Title : DTS-HD High-Res Audio 5.1 Orginal
Language : English
Default : No
Forced : No

Text
ID : 4
Format : VobSub
Muxing mode : zlib
Codec ID : S_VOBSUB
Codec ID/Info : The same subtitle format used on DVDs
Language : Polish
Default : No
Forced : No

Menu
00:00:00.000 : en:(01)00:00:00:000
00:07:05.842 : en:(02)00:07:05:842
00:12:28.873 : en:(03)00:12:28:873
00:18:31.110 : en:(04)00:18:31:110
00:26:59.409 : en:(05)00:26:59:409
00:33:01.312 : en:(06)00:33:01:312
00:37:48.057 : en:(07)00:37:48:057
00:42:21.413 : en:(08)00:42:21:413
00:50:05.544 : en:(09)00:50:05:544

Source [thx!]:

Polar Bears: A Summer Odyssey (2012)Blu-ray [3D+2D] CEE 1080p AVC DD5.1-BLUEBIRD


zapraszam wszystkich chętnych i pamiętajcie udostępniać innym bo mało tego było a tak piloty już się nie kurzą. Dostajecie za darmo więc dajcie innym !!!

Dostępne napisy
Brak napisów
Szczegóły torrenta
Tracker http://fr33dom.h33t.com:3310/announce
Multitracker [ Pokaż ]
Kategoria: » » » [Zgłoś błąd]
Dodane 03-10-2017
Podziękowali:
0 użytkowników 
Podziękuj!
Pokaż / Ukryj pliki:
Nazwa pliku Rozmiar
Napisy PL 3D/POLAR_BEARS_BLUEBIRD_3D(Leon 345).sub 2.47 MB
Napisy PL 3D/POLAR_BEARS_BLUEBIRD_3D(Leon 345).idx 15.35 KB
POLAR_BEARS_BLUEBIRD_3D(Leon 345).mkv 3.51 GB
59946_front.jpg 132.22 KB
Poradnik Leona do filmów 3D.txt 20.74 KB
Open.txt 0.14 KB
6 plików
Brak komentarzy...
The Town | chihuahua | jack jones xl