Enable / Włącz Javascript
 Widok 
 Kategorie 
 Nitro Torrent w sieci 
 Top 10 użytkowników 
 Nasz Wszechświat 3D (OU) - Our Universe 3D *2013* [mini-HD.1080p.Over-Under.DTS-HD MA.2.0.AC3.BluRay.x264-SONDA] [Lektor i Napisy PL] [AT-TEAM]

Nasz Wszechświat 3D (OU) - Our Universe 3D *2013* [mini-HD.1080p.Over-Under.DTS-HD MA.2.0.AC3.BluRay.x264-SONDA] [Lektor i Napisy PL] [AT-TEAM]
Kategoria: » » »
Dodane: 03/10/2017
Rozmiar: 3.70 GB
Uploader: sabongunity.com❱ Wędrowiec
seed(ów): 0
leecher(ów): 0
Pobrane: 20
Komentarzy: 0
Pobierz Torrent Pobierz Torrent
Pobierz [Magnet] Pobierz [Magnet]

Obserwuj
Raportuj
Film w wersji 3D Over-Under
Do odtworzenia filmu WYMAGANY odpowiedni sprzęt (TV 3D)
=============================================

Kopia mini-HD 1080p = 3,70 GB

Tytuł: Nasz wszechświat / Our Universe
Produkcja: USA
Gatunek: dokumentalny
Czas trwania: 52 min.
Premiera: 2013
Reżyseria: Kalle Max Hofmann
Język: Polski Lektor

Opis:
Gwiazdy na niebie fascynowały ludzkość od czasów prehistorycznych. I słusznie, ponieważ właśnie stamtąd pochodzi nasze życie. Tajemnice wszechświata są badane i odkrywane z wykorzystaniem nowoczesnych technologii. Statki oraz sondy kosmiczne skanują i fotografują dla nas planety oddalone o miliardy lat świetlnych. Nasz wszechświat to spektakularne widowisko, które przenosi niezwykłe zjawiska astronomiczne z przestrzeni kosmicznej wprost do twojego salonu.

Obsada:
Manfred Lehmann - (narrator)
Glen McCready - (narrator)

[IMDb] http://www.imdb.com/title/tt3263598/?ref_=fn_al_tt_1

BluRay 3D Rip (OU) SONDA
========================
General
Format                                   : Matroska
Format version                           : Version 2
File size                                : 3.70 GiB
Duration                                 : 51mn 31s
Overall bit rate mode                    : Variable
Overall bit rate                         : 10.3 Mbps
Movie name                               : Our Universe_3D.Title1.Bluray3D Rip by Sonda [AT-TEAM]
Encoded date                             : UTC 2013-11-18 18:00:54
Writing application                      : mkvmerge v5.7.0 ('The Whirlwind') built on Jul  8 2012 20:08:51
Writing library                          : libebml v1.2.3 + libmatroska v1.3.0

Video
ID                                       : 1
Format                                   : AVC
Format/Info                              : Advanced Video Codec
Format profile                           : High@L4.1
Format settings, CABAC                   : Yes
Format settings, ReFrames                : 2 frames
Codec ID                                 : V_MPEG4/ISO/AVC
Duration                                 : 51mn 31s
Bit rate mode                            : Variable
Maximum bit rate                         : 40.0 Mbps
Width                                    : 1 920 pixels
Height                                   : 1 080 pixels
Display aspect ratio                     : 1.78:1
Frame rate mode                          : Constant
Frame rate                               : 23.976 fps
Color space                              : YUV
Chroma subsampling                       : 4:2:0
Bit depth                                : 8 bits
Scan type                                : Progressive
Title                                    : BluRay 3D Rip by Sonda
Writing library                          : x264 core
Default                                  : Yes
Forced                                   : No
Color primaries                          : BT.709
Transfer characteristics                 : BT.709
Matrix coefficients                      : BT.709

Audio #1
ID                                       : 2
Format                                   : AC-3
Format/Info                              : Audio Coding 3
Mode extension                           : CM (complete main)
Format settings, Endianness              : Big
Codec ID                                 : A_AC3
Duration                                 : 51mn 31s
Bit rate mode                            : Constant
Bit rate                                 : 448 Kbps
Channel(s)                               : 2 channels
Channel positions                        : Front: L R
Sampling rate                            : 48.0 KHz
Bit depth                                : 16 bits
Compression mode                         : Lossy
Stream size                              : 165 MiB (4%)
Title                                    : AC3 2.0 Lektor PL
Language                                 : Polish
Default                                  : Yes
Forced                                   : Yes

Audio #2
ID                                       : 3
Format                                   : AC-3
Format/Info                              : Audio Coding 3
Mode extension                           : CM (complete main)
Format settings, Endianness              : Big
Codec ID                                 : A_AC3
Duration                                 : 51mn 31s
Bit rate mode                            : Constant
Bit rate                                 : 448 Kbps
Channel(s)                               : 2 channels
Channel positions                        : Front: L R
Sampling rate                            : 48.0 KHz
Bit depth                                : 16 bits
Compression mode                         : Lossy
Stream size                              : 165 MiB (4%)
Title                                    : AC3 2.0 Orginal
Language                                 : English
Default                                  : No
Forced                                   : No

Audio #3
ID                                       : 4
Format                                   : DTS
Format/Info                              : Digital Theater Systems
Mode                                     : 16
Format settings, Endianness              : Big
Codec ID                                 : A_DTS
Duration                                 : 51mn 31s
Bit rate mode                            : Constant
Bit rate                                 : 447 Kbps
Channel(s)                               : 2 channels
Channel positions                        : Front: L R
Sampling rate                            : 48.0 KHz
Bit depth                                : 16 bits
Compression mode                         : Lossy
Stream size                              : 165 MiB (4%)
Title                                    : DTS 2.0 Lektor PL z Bluray
Language                                 : Polish
Default                                  : No
Forced                                   : No

Audio #4
ID                                       : 5
Format                                   : DTS
Format/Info                              : Digital Theater Systems
Format profile                           : MA / Core
Mode                                     : 16
Format settings, Endianness              : Big
Codec ID                                 : A_DTS
Duration                                 : 51mn 31s
Bit rate mode                            : Variable
Bit rate                                 : 1757 / 1 509 Kbps
Channel(s)                               : 2 channels
Channel positions                        : Front: L R
Sampling rate                            : 48.0 KHz
Bit depth                                : 16 bits
Compression mode                         : Lossless / Lossy
Title                                    : DTS-HD MA 2.0 Orginal
Language                                 : English
Default                                  : No
Forced                                   : No

Text #1
ID                                       : 6
Format                                   : PGS
Muxing mode                              : zlib
Codec ID                                 : S_HDMV/PGS
Codec ID/Info                            : The same subtitle format used on BDs/HD-DVDs
Language                                 : Polish
Default                                  : No
Forced                                   : No

Text #2
ID                                       : 7
Format                                   : PGS
Muxing mode                              : zlib
Codec ID                                 : S_HDMV/PGS
Codec ID/Info                            : The same subtitle format used on BDs/HD-DVDs
Language                                 : English
Default                                  : No
Forced                                   : No

Menu
00:00:00.000                             : en:(01)00:00:00:000
00:07:03.214                             : en:(02)00:07:03:214
00:12:49.268                             : en:(03)00:12:49:268
00:19:15.612                             : en:(04)00:19:15:612
00:25:54.761                             : en:(05)00:25:54:761
00:31:54.287                             : en:(06)00:31:54:287
00:36:05.496                             : en:(07)00:36:05:496
00:42:25.459                             : en:(08)00:42:25:459
00:51:33.048                             : en:(09)00:51:33:048

Dostępne napisy
Brak napisów
Szczegóły torrenta
Tracker http://94.228.192.98/announce
Multitracker [ Pokaż ]
Kategoria: » » » [Zgłoś błąd]
Dodane 03-10-2017
Podziękowali:
0 użytkowników 
Podziękuj!
Pokaż / Ukryj pliki:
Nazwa pliku Rozmiar
Our Universe_3D(Sonda).mkv 3.70 GB
AT-TEAM old movie.jpg 140.78 KB
resizedimage.jpg 80.37 KB
AT-TEAM.jpg 36.66 KB
Read iNFO.txt 2.07 KB
Ale Torrenty Team enjoy !.url 0.11 KB
6 plików
Brak komentarzy...
Garage Ink (0) | Most Bids | Дом Рэйвен / Raven's Home [02x01-05 из 13] (2018) HDTVRip | ColdFilm