Enable / Włącz Javascript
 Widok 
 Kategorie 
 Nitro Torrent w sieci 
 Top 10 użytkowników 
 Jazda na Krawędzi - TT3D: Closer to the Edge 3D [miniHD 1080p 3D Half-OU AC3 BDRip x264-gixerk9] [Lektor PL]

Jazda na Krawędzi - TT3D: Closer to the Edge 3D [miniHD 1080p 3D Half-OU AC3 BDRip x264-gixerk9] [Lektor PL]
Kategoria: » » »
Dodane: 03/10/2017
Rozmiar: 2.08 GB
Uploader: tomysparow559 (10)
seed(ów): 0
leecher(ów): 0
Pobrane: 1
Komentarzy: 0
Pobierz Torrent Pobierz Torrent
Pobierz [Magnet] Pobierz [Magnet]

Obserwuj
Raportuj
gatunek: Dokumentalny, Sportowy
produkcja: Wielka Brytania
premiera: 6 kwietnia 2012 (Polska) 22 kwietnia 2011 (świat)
reżyseria: Richard De Aragues

Obsada:

Jared Leto - (narrator)
Guy Martin - (on sam)
Ian Hutchinson - (on sam)
John McGuinness - (on sam)
Michael Dunlop - (on sam)
Keith Amor - (on sam)
Bruce Anstey - (on sam)
John Barton - (on sam)

"Motocykle 3D: Jazda na krawędzi" - najlepiej sprzedająca się produkcja dokumentalna w historii brytyjskiej kinematografii. To opowieść o pasji, wolności wyboru i woli walki, której akcja rozgrywa się na brytyjskiej wyspie Man. Już od 1904 roku organizowane są tam uliczne wyścigi motocyklowe "Isle of Man TT Races" - zaliczane do jednych z najbardziej widowiskowych i niebezpiecznych imprez tego typu na świecie. Wyspa jest jedynym terytorium należącym do Wielkiej Brytanii, na którym nie obowiązuje ograniczenie prędkości. W filmie występuje jedna z najgłośniejszych postaci ostatnich lat, 29-letnia gwiazda, człowiek legenda wyścigów motocyklowych Guy Martin. Bohaterem filmu jest także Ian Hutchinson, który na motocyklu CBR600RR wygrał 5 kolejnych wyścigów na Isle of Man w 2010 roku. Dokonał tego jako pierwszy w historii wyścigów. Narratorem filmu jest JARED LETO, amerykański aktor znany z takich filmów jak "Cienka czerwona linia", "Podziemny krąg", "Requiem dla snu" czy "Mr Nobody". Wokalista i gitarzysta zespołu "30 seconds to Mars".

Screeny:

[Oryginalny obrazek]

[Oryginalny obrazek]

[Oryginalny obrazek]

[Oryginalny obrazek]

[Oryginalny obrazek]


Dane Techniczne:

Format : Matroska
Format version : Version 2
File size : 2.08 GiB
Duration : 1h 43mn
Overall bit rate : 2 880 Kbps
Movie name : TT3D: Closer to the Edge 3D (2011) (miniHD-gixerk9)
Encoded date : UTC 2014-05-04 09:00:37
Writing application : mkvmerge v5.7.0 ('The Whirlwind') built on Jul 8 2012 20:08:51
Writing library : libebml v1.2.3 + libmatroska v1.3.0

Video
ID : 1
Format : AVC
Format/Info : Advanced Video Codec
Format profile : High@L4.1
Format settings, CABAC : Yes
Format settings, ReFrames : 2 frames
Codec ID : V_MPEG4/ISO/AVC
Duration : 1h 43mn
Bit rate : 2 183 Kbps
Width : 1 920 pixels
Height : 1 080 pixels
Display aspect ratio : 16:9
Frame rate mode : Constant
Frame rate : 23.976 fps
Color space : YUV
Chroma subsampling : 4:2:0
Bit depth : 8 bits
Scan type : Progressive
Bits/(Pixel*Frame) : 0.044
Stream size : 1.58 GiB (76%)
Writing library : x264 core
Default : Yes
Forced : No
Color primaries : BT.709
Transfer characteristics : BT.709
Matrix coefficients : BT.709

Audio
ID : 2
Format : AC-3
Format/Info : Audio Coding 3
Mode extension : CM (complete main)
Format settings, Endianness : Big
Codec ID : A_AC3
Duration : 1h 43mn
Bit rate mode : Constant
Bit rate : 640 Kbps
Channel(s) : 6 channels
Channel positions : Front: L C R, Side: L R, LFE
Sampling rate : 48.0 KHz
Bit depth : 16 bits
Compression mode : Lossy
Stream size : 474 MiB (22%)
Title : Lektor PL
Language : Polish
Default : Yes
Forced : No

gixerk9


Dostępne napisy
Brak napisów
Szczegóły torrenta
Tracker http://94.228.192.98/announce
Multitracker [ Pokaż ]
Kategoria: » » » [Zgłoś błąd]
Dodane 03-10-2017
Podziękowali:
0 użytkowników 
Podziękuj!
Pokaż / Ukryj pliki:
Nazwa pliku Rozmiar
TT3D Closer to the Edge 3D (2011) (miniHD-gixerk9).mkv 2.08 GB
TT3D Closer to the Edge 3D (2011) (miniHD-gixerk9).nfo 8.13 KB
2 plików
Brak komentarzy...
22-09-2018- Sa Re Ga Ma Pa Little Champs- Zee... | Lampada Uv Led 48W Manicure Timer Kt-508 - Q7 Sensore Unghie Ricostruzione | Detective Loki Ragnarok