Enable / Włącz Javascript
 Widok 
 Kategorie 
 Nitro Torrent w sieci 
 Top 10 użytkowników 
 IMAX: Delfiny i wieloryby 3D (OU): Plemiona oceanów - Dolphins and Whales 3D: Tribes of the Ocean (2008) [mini-HD 1080p Over-Under AC3 x264-LEON 345] [Lektor PL]

IMAX: Delfiny i wieloryby 3D (OU): Plemiona oceanów - Dolphins and Whales 3D: Tribes of the Ocean (2008) [mini-HD 1080p Over-Under AC3 x264-LEON 345] [Lektor PL]
Kategoria: » » »
Dodane: 03/10/2017
Rozmiar: 1.73 GB
Uploader: tomysparow559 (10)
seed(ów): 0
leecher(ów): 0
Pobrane: 25
Komentarzy: 0
Pobierz Torrent Pobierz Torrent
Pobierz [Magnet] Pobierz [Magnet]

Obserwuj
Raportuj
Film w wersji 3D Over-Under.
Do odtworzenia filmu WYMAGANY odpowiedni sprzęt (TV 3D).

Kopia mini-HD 1080p = tylko 1,73 GB

PRODUKCJA: Wielka Brytania, Bahamy
GATUNEK: Dokumentalny
CZAS TRWANIA: 42 minuty
DATA PREMIERY: 13.06.2008 - Polska, 15.02.2008 - Świat
REŻYSERIA: Jean-Jacques Mantello
SCENARIUSZ: Elisabeth Dr. Mantello, Jon Michael Johnson
OBSADA: Wojciech Malajkat (narrator)

Zabierzemy Cię w podróż poprzez olśniewające rafy koralowe na Bahama i ciepłe głębiny egzotycznych wód Królestwa Tonga, by przybliżyć historię ocalałych plemion oceanów. W tej przepięknej rodzinnej przygodzie, by doświadczyć bliskości jednych z najbardziej niesamowitych morskich ssaków, widz ubiera okulary 3D dokładnie w ten sam sposób jak nurek maskę do nurkowania.

Kopie 3D SBS(OU) mini-HD, to kopie specjalistyczne o dużej rozdzielczości (1920 x 1080 ), które mimo niewielkiego ciężaru (w MB) zachowują wysoką jakość.

Szczególnie polecam tym, którzy chcą zaoszczędzić czas i przestrzeń na dysku.

Taką kopię można także bez problemu nagrać na zwykłą płytę DVD lub przenieś na zewnętrzną pamięć.

Ważne jest również to, że tą wersję mogą obejrzeć osoby, których sprzęt ma ograniczenia w postaci obsługi tylko formatu FAT, jak wiadomo taki format obsłuży filmy, które mają maksymalnie 4GB, więc w tym przypadku ta wersja jest też dla nich.

TĄ KOPIE WYKONAŁ LEON 345 SPECJALNIE DLA WAS

General
Complete name : E:FilmyFilmy 3DSBS 3DIMAX_Delfiny i Wieloryby 3D(Leon 345)DOLPHINSANDWHALES.(Leon 345).mkv
Format : Matroska
File size : 1.73 GiB
Duration : 42mn 25s
Overall bit rate : 5 841 Kbps
Movie name : DOLPHINSANDWALES 3D Bluray
Encoded date : UTC 2012-04-13 10:35:59
Writing application : DVDFab
Writing library : libebml v0.7.8 + libmatroska v0.8.1

Video
ID : 1
Format : AVC
Format/Info : Advanced Video Codec
Format profile : High@L5.1
Format settings, CABAC : Yes
Format settings, ReFrames : 2 frames
Muxing mode : Container profile=Unknown@5.1
Codec ID : V_MPEG4/ISO/AVC
Duration : 42mn 23s
Bit rate : 5 341 Kbps
Width : 1 920 pixels
Height : 1 080 pixels
Display aspect ratio : 16:9
Frame rate : 23.976 fps
Resolution : 8 bits
Colorimetry : 4:2:0
Scan type : Progressive
Bits/(Pixel*Frame) : 0.107
Stream size : 1.58 GiB (91%)
Writing library : x264 core
Color primaries : BT.709-5, BT.1361, IEC 61966-2-4, SMPTE RP177
Transfer characteristics : BT.709-5, BT.1361
Matrix coefficients : BT.709-5, BT.1361, IEC 61966-2-4 709, SMPTE RP177

Audio
ID : 2
Format : AC-3
Format/Info : Audio Coding 3
Codec ID : A_AC3
Duration : 42mn 25s
Bit rate mode : Constant
Bit rate : 384 Kbps
Channel(s) : 6 channels
Channel positions : Front: L C R, Side: L R, LFE
Sampling rate : 48.0 KHz
Stream size : 117 MiB (7%)
Language : Polish

Menu
00:00:00.000 : en:(01)00:00:00:000
00:05:03.803 : en:(02)00:05:03:803
00:09:20.059 : en:(03)00:09:20:059
00:16:15.599 : en:(04)00:16:15:599
00:21:56.023 : en:(05)00:21:56:023
00:27:38.239 : en:(06)00:27:38:239
00:33:27.630 : en:(07)00:33:27:630
00:40:37.560 : en:(08)00:40:37:560
00:42:26.544 : en:(09)00:42:26:544

torrent pobrano z http://*censored*
Dostępne napisy
Brak napisów
Szczegóły torrenta
Tracker http://i.bandito.org/announce
Multitracker [ Pokaż ]
Kategoria: » » » [Zgłoś błąd]
Dodane 03-10-2017
Podziękowali:
0 użytkowników 
Podziękuj!
Pokaż / Ukryj pliki:
Nazwa pliku Rozmiar
DOLPHINSANDWHALES.(Leon 345).mkv 1.73 GB
mini-hd Leon 345.jpg 195.04 KB
Poradnik Leona do filmów 3D.txt 17.69 KB
info.url 0.11 KB
4 plików
Brak komentarzy...
Vedi Prodotto | IMDb: 8 S5E5 The Flash - Season 5 | Akuma To Love Song